找回密码
 立即注册
搜索
热搜: 活动 交友 discuz
查看: 146|回复: 1

[ATP] 20180311 ATP1000印第安维尔斯站R2 费德勒vs德尔波尼斯 SNG 1080i.ts

[复制链接]

5390

主题

6万

积分

5405

帖子

超级版主

Rank: 8Rank: 8

积分
61870
发表于 2018-3-12 23:32:59 | 显示全部楼层 |阅读模式




E:\SNG\20180311 ATP1000印第安维尔斯站R2 费德勒vs德尔波尼斯 雨休 SNG 1080i.ts
  General #0
    ID : 0 (0x0)
    Complete name : E:\SNG\20180311 ATP1000印第安维尔斯站R2 费德勒vs德尔波尼斯 雨休 SNG 1080i.ts
    Format : MPEG-TS
    File size : 6.21 GiB
    Duration : 1h 23mn
    Overall bit rate mode : Variable
    Overall bit rate : 10.7 Mbps
  Video #512
    ID : 512 (0x200)
    Menu ID : 1 (0x1)
    Format : AVC
    Format/Info : Advanced Video Codec
    Format profile : High 4:2:2@L4.1
    Format settings, CABAC : Yes
    Format settings, ReFrames : 4 frames
    Format settings, GOP : M=4, N=24
    Codec ID : 27
    Duration : 1h 23mn
    Bit rate : 9 546 Kbps
    Width : 1 920 pixels
    Height : 1 080 pixels
    Display aspect ratio : 16:9
    Frame rate : 25.000 fps
    Standard : Component
    Color space : YUV
    Chroma subsampling : 4:2:2
    Bit depth : 10 bits
    Scan type : Interlaced
    Scan order : Top Field First
    Bits/(Pixel*Frame) : 0.184
    Stream size : 5.56 GiB (90%)
    Color primaries : BT.709
    Transfer characteristics : BT.709
    Matrix coefficients : BT.709
  Audio #513
    ID : 513 (0x201)
    Menu ID : 1 (0x1)
    Format : MPEG Audio
    Format version : Version 1
    Format profile : Layer 2
    Mode : Dual mono
    Codec ID : 3
    Duration : 1h 23mn
    Bit rate mode : Constant
    Bit rate : 192 Kbps
    Channel count : 2 channels
    Sampling rate : 48.0 KHz
    Compression mode : Lossy
    Stream size : 115 MiB (2%)
    Language : English
  Audio #514
    ID : 514 (0x202)
    Menu ID : 1 (0x1)
    Format : MPEG Audio
    Format version : Version 1
    Format profile : Layer 2
    Mode : Dual mono
    Codec ID : 3
    Duration : 1h 23mn
    Bit rate mode : Constant
    Bit rate : 192 Kbps
    Channel count : 2 channels
    Sampling rate : 48.0 KHz
    Compression mode : Lossy
    Stream size : 115 MiB (2%)
    Language : English
  Audio #515
    ID : 515 (0x203)
    Menu ID : 1 (0x1)
    Format : MPEG Audio
    Format version : Version 1
    Format profile : Layer 2
    Mode : Dual mono
    Codec ID : 3
    Duration : 1h 23mn
    Bit rate mode : Constant
    Bit rate : 192 Kbps
    Channel count : 2 channels
    Sampling rate : 48.0 KHz
    Compression mode : Lossy
    Stream size : 115 MiB (2%)
    Language : English

E:\SNG\20180312 ATP1000印第安维尔斯站R2 费德勒vs德尔波尼斯 第二阶段 SNG 1080i.ts
  General #0
    ID : 0 (0x0)
    Complete name : E:\SNG\20180312 ATP1000印第安维尔斯站R2 费德勒vs德尔波尼斯 第二阶段 SNG 1080i.ts
    Format : MPEG-TS
    File size : 4.09 GiB
    Duration : 53mn 53s
    Overall bit rate mode : Variable
    Overall bit rate : 10.9 Mbps
  Video #512
    ID : 512 (0x200)
    Menu ID : 1 (0x1)
    Format : AVC
    Format/Info : Advanced Video Codec
    Format profile : High 4:2:2@L4.1
    Format settings, CABAC : Yes
    Format settings, ReFrames : 4 frames
    Format settings, GOP : M=4, N=24
    Codec ID : 27
    Duration : 53mn 51s
    Bit rate : 9 746 Kbps
    Width : 1 920 pixels
    Height : 1 080 pixels
    Display aspect ratio : 16:9
    Frame rate : 25.000 fps
    Standard : Component
    Color space : YUV
    Chroma subsampling : 4:2:2
    Bit depth : 10 bits
    Scan type : Interlaced
    Scan order : Top Field First
    Bits/(Pixel*Frame) : 0.188
    Stream size : 3.67 GiB (90%)
    Color primaries : BT.709
    Transfer characteristics : BT.709
    Matrix coefficients : BT.709
  Audio #513
    ID : 513 (0x201)
    Menu ID : 1 (0x1)
    Format : MPEG Audio
    Format version : Version 1
    Format profile : Layer 2
    Mode : Dual mono
    Codec ID : 3
    Duration : 53mn 51s
    Bit rate mode : Constant
    Bit rate : 192 Kbps
    Channel count : 2 channels
    Sampling rate : 48.0 KHz
    Compression mode : Lossy
    Stream size : 74.0 MiB (2%)
    Language : English
  Audio #514
    ID : 514 (0x202)
    Menu ID : 1 (0x1)
    Format : MPEG Audio
    Format version : Version 1
    Format profile : Layer 2
    Mode : Dual mono
    Codec ID : 3
    Duration : 53mn 51s
    Bit rate mode : Constant
    Bit rate : 192 Kbps
    Channel count : 2 channels
    Sampling rate : 48.0 KHz
    Compression mode : Lossy
    Stream size : 74.0 MiB (2%)
    Language : English
  Audio #515
    ID : 515 (0x203)
    Menu ID : 1 (0x1)
    Format : MPEG Audio
    Format version : Version 1
    Format profile : Layer 2
    Mode : Dual mono
    Codec ID : 3
    Duration : 53mn 51s
    Bit rate mode : Constant
    Bit rate : 192 Kbps
    Channel count : 2 channels
    Sampling rate : 48.0 KHz
    Compression mode : Lossy
    Stream size : 74.0 MiB (2%)
    Language : English


购买主题 本主题需向作者支付 10 金币 才能浏览
回复

使用道具 举报

0

主题

2662

积分

1543

帖子

金牌会员

Rank: 6Rank: 6

积分
2662
发表于 2018-3-13 14:01:23 | 显示全部楼层
回复 支持 反对

使用道具 举报

您需要登录后才可以回帖 登录 | 立即注册

本版积分规则



QQ|Archiver|手机版|小黑屋|大帅体育资源站  

GMT+8, 2018-6-23 15:56 , Processed in 0.446264 second(s), 30 queries .

Powered by 1080 X3.2

© 2001-2018 sng.|专业无台标录制

快速回复 返回顶部 返回列表