找回密码
 立即注册
搜索
热搜: 活动 交友 discuz
查看: 133|回复: 2

[ATP] 20180312 ATP1000印第安维尔斯站R2 德约科维奇vs丹尼尔太郎 SNG 1080i.ts

[复制链接]

5390

主题

6万

积分

5405

帖子

超级版主

Rank: 8Rank: 8

积分
61870
发表于 2018-3-12 23:30:26 | 显示全部楼层 |阅读模式


E:\SNG\20180312 ATP1000印第安维尔斯站R2 德约科维奇vs丹尼尔太郎 SNG 1080i.ts
  General #0
    ID : 0 (0x0)
    Complete name : E:\SNG\20180312 ATP1000印第安维尔斯站R2 德约科维奇vs丹尼尔太郎 SNG 1080i.ts
    Format : MPEG-TS
    File size : 11.8 GiB
    Duration : 2h 46mn
    Overall bit rate mode : Variable
    Overall bit rate : 10.1 Mbps
  Video #512
    ID : 512 (0x200)
    Menu ID : 1 (0x1)
    Format : AVC
    Format/Info : Advanced Video Codec
    Format profile : High 4:2:2@L4.1
    Format settings, CABAC : Yes
    Format settings, ReFrames : 4 frames
    Codec ID : 27
    Duration : 2h 46mn
    Bit rate : 9 039 Kbps
    Width : 1 920 pixels
    Height : 1 080 pixels
    Display aspect ratio : 16:9
    Frame rate : 25.000 fps
    Standard : Component
    Color space : YUV
    Chroma subsampling : 4:2:2
    Bit depth : 10 bits
    Scan type : Interlaced
    Scan order : Top Field First
    Bits/(Pixel*Frame) : 0.174
    Stream size : 10.5 GiB (89%)
    Color primaries : BT.709
    Transfer characteristics : BT.709
    Matrix coefficients : BT.709
  Audio #513
    ID : 513 (0x201)
    Menu ID : 1 (0x1)
    Format : MPEG Audio
    Format version : Version 1
    Format profile : Layer 2
    Mode : Dual mono
    Codec ID : 3
    Duration : 2h 46mn
    Bit rate mode : Constant
    Bit rate : 192 Kbps
    Channel count : 2 channels
    Sampling rate : 48.0 KHz
    Compression mode : Lossy
    Stream size : 229 MiB (2%)
    Language : English
  Audio #514
    ID : 514 (0x202)
    Menu ID : 1 (0x1)
    Format : MPEG Audio
    Format version : Version 1
    Format profile : Layer 2
    Mode : Dual mono
    Codec ID : 3
    Duration : 2h 46mn
    Bit rate mode : Constant
    Bit rate : 192 Kbps
    Channel count : 2 channels
    Sampling rate : 48.0 KHz
    Compression mode : Lossy
    Stream size : 229 MiB (2%)
    Language : English
  Audio #515
    ID : 515 (0x203)
    Menu ID : 1 (0x1)
    Format : MPEG Audio
    Format version : Version 1
    Format profile : Layer 2
    Mode : Dual mono
    Codec ID : 3
    Duration : 2h 46mn
    Bit rate mode : Constant
    Bit rate : 192 Kbps
    Channel count : 2 channels
    Sampling rate : 48.0 KHz
    Compression mode : Lossy
    Stream size : 229 MiB (2%)
    Language : English

购买主题 已有 1 人购买  本主题需向作者支付 12 金币 才能浏览
回复

使用道具 举报

0

主题

5

积分

4

帖子

新手上路

Rank: 1

积分
5
发表于 2018-3-13 13:28:00 | 显示全部楼层
回复 支持 反对

使用道具 举报

0

主题

2662

积分

1543

帖子

金牌会员

Rank: 6Rank: 6

积分
2662
发表于 2018-3-13 14:03:09 | 显示全部楼层
回复 支持 反对

使用道具 举报

您需要登录后才可以回帖 登录 | 立即注册

本版积分规则



QQ|Archiver|手机版|小黑屋|大帅体育资源站  

GMT+8, 2018-6-23 15:51 , Processed in 0.414113 second(s), 30 queries .

Powered by 1080 X3.2

© 2001-2018 sng.|专业无台标录制

快速回复 返回顶部 返回列表