找回密码
 立即注册
搜索
热搜: 活动 交友 discuz
查看: 123|回复: 1

[意甲] 20180312 意甲第28轮 国际米兰vs那不勒斯 SONY TEN 1 HD 1080i.[0].ts

[复制链接]

5390

主题

6万

积分

5405

帖子

超级版主

Rank: 8Rank: 8

积分
61870
发表于 2018-3-12 23:13:11 | 显示全部楼层 |阅读模式






E:\SNG\20180312 意甲第28轮 国际米兰vs那不勒斯 SONY TEN 1 HD 1080i.[0].ts
  General #8900
    ID : 8900 (0x22C4)
    Complete name : E:\SNG\20180312 意甲第28轮 国际米兰vs那不勒斯 SONY TEN 1 HD 1080i.[0].ts
    Format : MPEG-TS
    File size : 8.59 GiB
    Duration : 2h 5mn
    Start time : UTC 2018-03-11 19:27:07
    Overall bit rate mode : Variable
    Overall bit rate : 9 810 Kbps
    Network name : SPTL
    Original network name : Astra Satellite Network 19,2'E
  Video #3075
    ID : 3075 (0xC03)
    Menu ID : 75 (0x4B)
    Format : AVC
    Format/Info : Advanced Video Codec
    Format profile : High@L4.0
    Format settings, CABAC : Yes
    Format settings, ReFrames : 4 frames
    Codec ID : 27
    Duration : 2h 5mn
    Width : 1 920 pixels
    Height : 1 080 pixels
    Display aspect ratio : 16:9
    Frame rate : 25.000 fps
    Color space : YUV
    Chroma subsampling : 4:2:0
    Bit depth : 8 bits
    Scan type : MBAFF
  Audio #3175
    ID : 3175 (0xC67)
    Menu ID : 75 (0x4B)
    Format : MPEG Audio
    Format version : Version 1
    Format profile : Layer 2
    Mode : Joint stereo
    Codec ID : 4
    Duration : 2h 5mn
    Bit rate mode : Constant
    Bit rate : 128 Kbps
    Channel count : 2 channels
    Sampling rate : 48.0 KHz
    Compression mode : Lossy
    Stream size : 115 MiB (1%)
  Audio #3275
    ID : 3275 (0xCCB)
    Menu ID : 75 (0x4B)
    Format : AC-3
    Format/Info : Audio Coding 3
    Codec ID : 129
    Duration : 2h 5mn
    Bit rate : 128 Kbps
    Channel count : 1 channel
    Sampling rate : 48.0 KHz
    Compression mode : Lossy
    Stream size : 115 MiB (1%)
    Encryption : Encrypted
  Audio #3375
    ID : 3375 (0xD2F)
    Menu ID : 75 (0x4B)
    Format : MPEG Audio
    Codec ID : 4
    Compression mode : Lossy
    Encryption : Encrypted
  Audio #3475
    ID : 3475 (0xD93)
    Menu ID : 75 (0x4B)
    Format : MPEG Audio
    Codec ID : 4
    Compression mode : Lossy
    Encryption : Encrypted
  Audio #3575
    ID : 3575 (0xDF7)
    Menu ID : 75 (0x4B)
    Format : MPEG Audio
    Format version : Version 1
    Format profile : Layer 2
    Mode : Joint stereo
    Codec ID : 4
    Duration : 2h 5mn
    Bit rate mode : Constant
    Bit rate : 128 Kbps
    Channel count : 2 channels
    Sampling rate : 48.0 KHz
    Compression mode : Lossy
    Delay relative to video : -10ms
    Stream size : 115 MiB (1%)
  Text #3075-608
    ID : 3075 (0xC03)-608
    Menu ID : 75 (0x4B)
    Format : EIA-608
    Muxing mode : A/53 / DTVCC Transport
    Muxing mode, more info : Muxed in Video #1
    Duration : 2h 5mn
    Bit rate mode : Constant
    Stream size : 0.00 Byte (0%)
  Text #3075-22
    ID : 3075 (0xC03)-22
    Menu ID : 75 (0x4B)
    Format : EIA-708
    Muxing mode : A/53 / DTVCC Transport
    Muxing mode, more info : Muxed in Video #1
    Duration : 2h 5mn
    Bit rate mode : Constant
    Stream size : 0.00 Byte (0%)
  Menu #5075
    ID : 5075 (0x13D3)
    Menu ID : 75 (0x4B)
    Duration : 2h 5mn
    List : 3075 (0xC03) (AVC) / 3175 (0xC67) (MPEG Audio) / 3275 (0xCCB) (AC-3) / 3375 (0xD2F) (MPEG Audio) / 3475 (0xD93) (MPEG Audio) / 3575 (0xDF7) (MPEG Audio) / 7001 (0x1B59) () / 7002 (0x1B5A) () / 7003 (0x1B5B) ()
    UTC 2018-02-21 00:00:00 : en:dummyEventName / en:dummyEventDescription /  /  / 23:59:59 / Running

购买主题 本主题需向作者支付 9 金币 才能浏览
回复

使用道具 举报

0

主题

2662

积分

1543

帖子

金牌会员

Rank: 6Rank: 6

积分
2662
发表于 2018-3-13 13:55:23 | 显示全部楼层
回复 支持 反对

使用道具 举报

您需要登录后才可以回帖 登录 | 立即注册

本版积分规则



QQ|Archiver|手机版|小黑屋|大帅体育资源站  

GMT+8, 2018-6-23 15:52 , Processed in 0.407812 second(s), 31 queries .

Powered by 1080 X3.2

© 2001-2018 sng.|专业无台标录制

快速回复 返回顶部 返回列表