找回密码
 立即注册
搜索
热搜: 活动 交友 discuz
查看: 186|回复: 1

[英超] 20180311 英超第30轮 水晶宫vs切尔西 SKYNET SPORTS HD 1080i.[0].ts

[复制链接]

6859

主题

6万

积分

6874

帖子

超级版主

Rank: 8Rank: 8

积分
69514
发表于 2018-3-12 23:11:36 | 显示全部楼层 |阅读模式


E:\SNG\20180311 英超第30轮 水晶宫vs切尔西 SKYNET SPORTS HD 1080i.[0].ts
  General #8900
    ID : 8900 (0x22C4)
    Complete name : E:\SNG\20180311 英超第30轮 水晶宫vs切尔西 SKYNET SPORTS HD 1080i.[0].ts
    Format : MPEG-TS
    File size : 4.76 GiB
    Duration : 2h 4mn
    Start time : UTC 2018-03-10 17:17:29
    End time : UTC 2018-03-10 19:21:20
    Overall bit rate mode : Variable
    Overall bit rate : 5 482 Kbps
    Network name : SKY NET
    Original network name : Astra Satellite Network 19,2'E
    Country : CHN
    Timezone : +08:00:00
  Video #514
    ID : 514 (0x202)
    Menu ID : 4410 (0x113A)
    Format : AVC
    Format/Info : Advanced Video Codec
    Format profile : Main@L4.0
    Format settings, CABAC : Yes
    Format settings, ReFrames : 4 frames
    Codec ID : 27
    Duration : 2h 4mn
    Bit rate : 4 920 Kbps
    Width : 1 920 pixels
    Height : 1 080 pixels
    Display aspect ratio : 16:9
    Frame rate : 25.000 fps
    Standard : Component
    Color space : YUV
    Chroma subsampling : 4:2:0
    Bit depth : 8 bits
    Scan type : MBAFF
    Bits/(Pixel*Frame) : 0.095
    Stream size : 4.27 GiB (90%)
    Color primaries : BT.709
    Transfer characteristics : BT.709
    Matrix coefficients : BT.709
  Audio #529
    ID : 529 (0x211)
    Menu ID : 4410 (0x113A)
    Format : MPEG Audio
    Format version : Version 1
    Format profile : Layer 2
    Mode : Joint stereo
    Mode extension : Intensity Stereo + MS Stereo
    Codec ID : 3
    Duration : 2h 4mn
    Bit rate mode : Constant
    Bit rate : 224 Kbps
    Channel count : 2 channels
    Sampling rate : 48.0 KHz
    Compression mode : Lossy
    Delay relative to video : -880ms
    Stream size : 199 MiB (4%)
    Language : English
  Audio #531
    ID : 531 (0x213)
    Menu ID : 4410 (0x113A)
    Format : MPEG Audio
    Format version : Version 1
    Format profile : Layer 2
    Mode : Joint stereo
    Codec ID : 3
    Duration : 2h 4mn
    Bit rate mode : Constant
    Bit rate : 64.0 Kbps
    Channel count : 2 channels
    Sampling rate : 48.0 KHz
    Compression mode : Lossy
    Delay relative to video : -804ms
    Stream size : 56.8 MiB (1%)
    Language : English
  Menu #36
    ID : 36 (0x24)
    Menu ID : 4410 (0x113A)
    Duration : 2h 4mn
    List : 514 (0x202) (AVC) / 529 (0x211) (MPEG Audio, English) / 531 (0x213) (MPEG Audio, English)
    Language :  / English / English
    UTC 2018-03-10 15:00:00 : en:Newcastle United Vs Southamptonremier(LIVE) / en: /  /  / 02:00:00 /
    UTC 2018-03-10 17:00:00 : enremier League 17-18 EPL World 38 / en: /  /  / 00:30:00 / Running
    UTC 2018-03-10 17:30:00 : en:Chelsea Vs Crystal Palaceremier League(LIVE) / en: /  /  / 02:15:00 / Running
    UTC 2018-03-10 19:45:00 : en:Malaga Vs Barcelona : Laliga (Week-28) (LIVE) / en: /  /  / 02:15:00 / Not running
    UTC 2018-03-10 22:00:00 : en:2017-18 UCL Round  Of 16-Magazine Show / en: /  /  / 00:30:00 /
    UTC 2018-03-10 22:30:00 : en:Atletico Madrid Vs Lokomotiv Moskova:UEFA Europa / en: /  /  / 02:00:00 /
    UTC 2018-03-11 00:30:00 : en:WWE Smackdown  - 245 (Premiere) / en: /  /  / 01:30:00 /
    UTC 2018-03-11 02:00:00 : en:MMA : ONE Weekly - Epi-61 / en: /  /  / 00:30:00 /
    UTC 2018-03-11 02:30:00 : en:WWE Mainevent  -  245 (Premiere) / en: /  /  / 01:00:00 /
    UTC 2018-03-11 03:30:00 : en:Manchester United Vs Liverpool / en: /  /  / 02:00:00 /
    UTC 2018-03-11 05:30:00 : en:EPL Saturday  Highlight Week-30 / en: /  /  / 01:00:00 /
    UTC 2018-03-11 06:30:00 : en:Chelsea Vs Crystal Palace (Week-30) / en: /  /  / 02:00:00 /
    UTC 2018-03-11 08:30:00 : en:Transworld Sports (4) / en: /  /  / 01:00:00 /
    UTC 2018-03-11 09:30:00 : en:MMA : ONE Weekly - Epi-61 / en: /  /  / 00:30:00 /
    UTC 2018-03-11 10:00:00 : enream Team Epi - 23 / en: /  /  / 00:30:00 /
    UTC 2018-03-11 10:30:00 : en:2017-18 Laliga World - Week-27 / en: /  /  / 00:30:00 /
    UTC 2018-03-11 11:00:00 : en:Espanyol Vs Real Sociedadaliga(LIVE) / en: /  /  / 02:00:00 /
    UTC 2018-03-11 13:00:00 : enremier League 17-18 EPL World 38 / en: /  /  / 00:30:00 /
    UTC 2018-03-11 13:30:00 : en:Arsenal Vs Watfordremier League(LIVE) / en: /  /  / 02:00:00 /
    UTC 2018-03-11 15:30:00 : enremier League 17-18 EPL World 38 / en: /  /  / 00:30:00 /
    UTC 2018-03-11 16:00:00 : en:AFC Bournemouth Vs Tottenham(LIVE) / en: /  /  / 02:00:00 /
    UTC 2018-03-11 18:00:00 : en:MMA : ONE Weekly - Epi-61 / en: /  /  / 00:30:00 /
    UTC 2018-03-11 18:30:00 : en:2017-18  EPL Netbusters  - Week-29 / en: /  /  / 00:30:00 /
    UTC 2018-03-11 19:00:00 : en:2017-18 Laliga World - Week-27 / en: /  /  / 00:45:00 /
    UTC 2018-03-11 19:45:00 : en:Bilbao Vs Leganes : Laliga(LIVE) / en: /  /  / 02:15:00 /
    UTC 2018-03-11 22:00:00 : en:2017-18 UCL Round Of 16-Highlight / en: /  /  / 00:30:00 /
    UTC 2018-03-11 22:30:00 : en:Malaga Vs Barcelona aliga(Week-28) / en: /  /  / 02:00:00 /

购买主题 本主题需向作者支付 5 金币 才能浏览
回复

使用道具 举报

0

主题

3250

积分

2131

帖子

论坛元老

Rank: 8Rank: 8

积分
3250
发表于 2018-3-13 13:52:59 | 显示全部楼层
回复 支持 反对

使用道具 举报

您需要登录后才可以回帖 登录 | 立即注册

本版积分规则


QQ|Archiver|手机版|小黑屋|大帅体育资源站  

GMT+8, 2018-12-10 21:48 , Processed in 0.566313 second(s), 29 queries .

Powered by 1080 X3.2

© 2001-2018 sng.|专业无台标录制

快速回复 返回顶部 返回列表