找回密码
 立即注册
搜索
热搜: 活动 交友 discuz
查看: 293|回复: 19

[体育节目] 20180305 天下足球 CCTV5HD 1080i.[0].ts

[复制链接]

5390

主题

6万

积分

5405

帖子

超级版主

Rank: 8Rank: 8

积分
61870
发表于 2018-3-6 10:32:32 | 显示全部楼层 |阅读模式






General
ID                             : 8900 (0x22C4)
Complete name                  : E:\SNG\20180305 天下足球 CCTV5HD 1080i.[0].ts
Format                         : MPEG-TS
File size                      : 9.05 GiB
Duration                       : 1 h 50 min
Start time                     : UTC 2018-03-05 11:32:54
End time                       : UTC 2018-03-05 13:23:22
Overall bit rate mode          : Variable
Overall bit rate               : 11.7 Mb/s
Network name                   : 内蒙古数字电视有线网络
Original network name          : Astra Satellite Network 19,2'E
Country                        : CHN
Timezone                       : +08:00:00

Video
ID                             : 769 (0x301)
Menu ID                        : 3303 (0xCE7)
Format                         : AVC
Format/Info                    : Advanced Video Codec
Format profile                 : High@L4
Format settings, CABAC         : Yes
Format settings, ReFrames      : 3 frames
Format settings, GOP           : M=3, N=12
Codec ID                       : 27
Duration                       : 1 h 50 min
Bit rate mode                  : Constant
Bit rate                       : 11.0 Mb/s
Nominal bit rate               : 9 000 kb/s
Width                          : 1 920 pixels
Height                         : 1 080 pixels
Display aspect ratio           : 16:9
Frame rate                     : 25.000 FPS
Color space                    : YUV
Chroma subsampling             : 4:2:0
Bit depth                      : 8 bits
Scan type                      : Interlaced
Scan type, store method        : Separated fields
Scan order                     : Top Field First
Bits/(Pixel*Frame)             : 0.213
Stream size                    : 8.50 GiB (94%)
Encryption                     : Encrypted
Color range                    : Limited
Color primaries                : BT.709
Transfer characteristics       : BT.709
Matrix coefficients            : BT.709

Audio
ID                             : 770 (0x302)
Menu ID                        : 3303 (0xCE7)
Format                         : MPEG Audio
Format version                 : Version 1
Format profile                 : Layer 2
Codec ID                       : 3
Duration                       : 1 h 50 min
Bit rate mode                  : Constant
Bit rate                       : 128 kb/s
Channel(s)                     : 2 channels
Sampling rate                  : 48.0 kHz
Compression mode               : Lossy
Delay relative to video        : -17 ms
Stream size                    : 101 MiB (1%)
Encryption                     : Encrypted

Menu
ID                             : 768 (0x300)
Menu ID                        : 3303 (0xCE7)
List                           : 769 (0x301) (AVC) / 770 (0x302) (MPEG Audio)
游客,如果您要查看本帖隐藏内容请回复
回复

使用道具 举报

0

主题

30

积分

21

帖子

新手上路

Rank: 1

积分
30
发表于 2018-3-6 10:35:40 | 显示全部楼层
回复 支持 反对

使用道具 举报

0

主题

14

积分

14

帖子

新手上路

Rank: 1

积分
14
发表于 2018-3-6 10:36:02 | 显示全部楼层
回复 支持 反对

使用道具 举报

0

主题

33

积分

33

帖子

新手上路

Rank: 1

积分
33
发表于 2018-3-6 10:36:33 | 显示全部楼层
回复 支持 反对

使用道具 举报

0

主题

14

积分

4

帖子

新手上路

Rank: 1

积分
14
发表于 2018-3-6 11:00:11 | 显示全部楼层
回复 支持 反对

使用道具 举报

0

主题

14

积分

4

帖子

新手上路

Rank: 1

积分
14
发表于 2018-3-6 11:02:29 | 显示全部楼层
回复 支持 反对

使用道具 举报

0

主题

54

积分

36

帖子

注册会员

Rank: 2

积分
54
发表于 2018-3-6 11:20:26 | 显示全部楼层
回复 支持 反对

使用道具 举报

0

主题

2662

积分

1543

帖子

金牌会员

Rank: 6Rank: 6

积分
2662
发表于 2018-3-6 14:02:34 | 显示全部楼层
回复 支持 反对

使用道具 举报

0

主题

201

积分

201

帖子

中级会员

Rank: 3Rank: 3

积分
201
发表于 2018-3-6 16:30:11 | 显示全部楼层
回复 支持 反对

使用道具 举报

0

主题

3

积分

3

帖子

新手上路

Rank: 1

积分
3
发表于 2018-3-6 18:20:10 | 显示全部楼层
回复 支持 反对

使用道具 举报

您需要登录后才可以回帖 登录 | 立即注册

本版积分规则



QQ|Archiver|手机版|小黑屋|大帅体育资源站  

GMT+8, 2018-6-23 15:56 , Processed in 0.619066 second(s), 28 queries .

Powered by 1080 X3.2

© 2001-2018 sng.|专业无台标录制

快速回复 返回顶部 返回列表