找回密码
 立即注册
搜索
热搜: 活动 交友 discuz
查看: 436|回复: 5

[演唱会] 20171231 中国爱乐乐团2018新年音乐会 SNG 1080i.[0].ts

[复制链接]

5390

主题

6万

积分

5405

帖子

超级版主

Rank: 8Rank: 8

积分
61870
发表于 2017-12-31 22:53:24 | 显示全部楼层 |阅读模式








General
ID                             : 8900 (0x22C4)
Complete name                  : G:\SNG\20171231 中国爱乐乐团2018新年音乐会 SNG 1080i.[0].ts
Format                         : MPEG-TS
File size                      : 17.1 GiB
Duration                       : 17h 48mn
Overall bit rate mode          : Variable
Overall bit rate               : 2 296 Kbps

Video
ID                             : 33 (0x21)
Menu ID                        : 1 (0x1)
Format                         : AVC
Format/Info                    : Advanced Video Codec
Format profile                 : High@L4.1
Format settings, CABAC         : Yes
Format settings, ReFrames      : 4 frames
Codec ID                       : 27
Duration                       : 1h 55mn
Bit rate                       : 1 148 Kbps
Width                          : 1 920 pixels
Height                         : 1 080 pixels
Display aspect ratio           : 16:9
Frame rate                     : 25.000 fps
Color space                    : YUV
Chroma subsampling             : 4:2:0
Bit depth                      : 8 bits
Scan type                      : Interlaced
Scan type, store method        : Separated fields
Scan order                     : Top Field First
Bits/(Pixel*Frame)             : 0.022
Stream size                    : 948 MiB (5%)
Color range                    : Limited
Color primaries                : BT.709
Transfer characteristics       : BT.709
Matrix coefficients            : BT.709

Audio #1
ID                             : 34 (0x22)
Menu ID                        : 1 (0x1)
Format                         : MPEG Audio
Format version                 : Version 1
Format profile                 : Layer 2
Mode                           : Dual mono
Codec ID                       : 3
Duration                       : 1h 55mn
Bit rate mode                  : Constant
Bit rate                       : 256 Kbps
Channel(s)                     : 2 channels
Sampling rate                  : 48.0 KHz
Compression mode               : Lossy
Delay relative to video        : 70ms
Stream size                    : 211 MiB (1%)
Language                       : English

Audio #2
ID                             : 35 (0x23)
Menu ID                        : 1 (0x1)
Format                         : MPEG Audio
Format version                 : Version 1
Format profile                 : Layer 2
Mode                           : Dual mono
Codec ID                       : 3
Duration                       : 1h 55mn
Bit rate mode                  : Constant
Bit rate                       : 256 Kbps
Channel(s)                     : 2 channels
Sampling rate                  : 48.0 KHz
Compression mode               : Lossy
Delay relative to video        : -10ms
Stream size                    : 211 MiB (1%)
Language                       : English

Audio #3
ID                             : 36 (0x24)
Menu ID                        : 1 (0x1)
Format                         : MPEG Audio
Format version                 : Version 1
Format profile                 : Layer 2
Mode                           : Dual mono
Codec ID                       : 3
Duration                       : 1h 55mn
Bit rate mode                  : Constant
Bit rate                       : 256 Kbps
Channel(s)                     : 2 channels
Sampling rate                  : 48.0 KHz
Compression mode               : Lossy
Delay relative to video        : -10ms
Stream size                    : 211 MiB (1%)
Language                       : English

Audio #4
ID                             : 37 (0x25)
Menu ID                        : 1 (0x1)
Format                         : MPEG Audio
Format version                 : Version 1
Format profile                 : Layer 2
Mode                           : Dual mono
Codec ID                       : 3
Duration                       : 1h 55mn
Bit rate mode                  : Constant
Bit rate                       : 256 Kbps
Channel(s)                     : 2 channels
Sampling rate                  : 48.0 KHz
Compression mode               : Lossy
Delay relative to video        : -10ms
Stream size                    : 211 MiB (1%)
Language                       : English

Menu
ID                             : 32 (0x20)
Menu ID                        : 1 (0x1)
Duration                       : 17h 48mn
List                           : 33 (0x21) (AVC) / 34 (0x22) (MPEG Audio, English) / 35 (0x23) (MPEG Audio, English) / 36 (0x24) (MPEG Audio, English) / 37 (0x25) (MPEG Audio, English)
Language                       :  / English / English / English / English
Maximum bit rate               : 200000000


购买主题 已有 2 人购买  本主题需向作者支付 20 金币 才能浏览
回复

使用道具 举报

0

主题

39

积分

6

帖子

新手上路

Rank: 1

积分
39
发表于 2018-1-1 00:06:58 | 显示全部楼层
回复

使用道具 举报

0

主题

2662

积分

1543

帖子

金牌会员

Rank: 6Rank: 6

积分
2662
发表于 2018-1-1 16:58:20 | 显示全部楼层
回复 支持 反对

使用道具 举报

0

主题

1

积分

1

帖子

新手上路

Rank: 1

积分
1
发表于 2018-1-4 13:39:26 | 显示全部楼层
回复 支持 反对

使用道具 举报

0

主题

5

积分

5

帖子

新手上路

Rank: 1

积分
5
发表于 2018-1-6 22:01:49 | 显示全部楼层
回复 支持 反对

使用道具 举报

0

主题

12

积分

12

帖子

新手上路

Rank: 1

积分
12
发表于 2018-3-6 23:38:33 | 显示全部楼层
回复 支持 反对

使用道具 举报

您需要登录后才可以回帖 登录 | 立即注册

本版积分规则



QQ|Archiver|手机版|小黑屋|大帅体育资源站  

GMT+8, 2018-6-23 15:52 , Processed in 0.521363 second(s), 31 queries .

Powered by 1080 X3.2

© 2001-2018 sng.|专业无台标录制

快速回复 返回顶部 返回列表