找回密码
 立即注册
搜索
热搜: 活动 交友 discuz
查看: 515|回复: 19

[体育节目] 20171113 天下足球 CCTV5HD 1080i.ts

[复制链接]

5390

主题

6万

积分

5405

帖子

超级版主

Rank: 8Rank: 8

积分
61870
发表于 2017-11-14 00:27:12 | 显示全部楼层 |阅读模式




General
ID                             : 1 (0x1)
Complete name                  : E:\【上传】\SNG\20171113 天下足球 CCTV5HD 1080i.ts
Format                         : MPEG-TS
File size                      : 8.27 GiB
Duration                       : 1h 50mn
Overall bit rate mode          : Variable
Overall bit rate               : 10.7 Mbps

Video
ID                             : 102 (0x66)
Menu ID                        : 3402 (0xD4A)
Format                         : AVC
Format/Info                    : Advanced Video Codec
Format profile                 : High@L4
Format settings, CABAC         : Yes
Format settings, ReFrames      : 2 frames
Codec ID                       : 27
Duration                       : 1h 50mn
Bit rate                       : 9 554 Kbps
Width                          : 1 920 pixels
Height                         : 1 080 pixels
Display aspect ratio           : 16:9
Frame rate                     : 25.000 fps
Standard                       : Component
Color space                    : YUV
Chroma subsampling             : 4:2:0
Bit depth                      : 8 bits
Scan type                      : Interlaced
Scan type, store method        : Separated fields
Scan order                     : Top Field First
Bits/(Pixel*Frame)             : 0.184
Stream size                    : 7.36 GiB (89%)
Color range                    : Limited
Color primaries                : BT.709
Transfer characteristics       : BT.709
Matrix coefficients            : BT.709

Audio #1
ID                             : 206 (0xCE)
Menu ID                        : 3402 (0xD4A)
Format                         : AC-3
Format/Info                    : Audio Coding 3
Mode extension                 : CM (complete main)
Format settings, Endianness    : Big
Codec ID                       : 6
Duration                       : 1h 50mn
Bit rate mode                  : Constant
Bit rate                       : 448 Kbps
Channel(s)                     : 6 channels
Channel positions              : Front: L C R, Side: L R, LFE
Sampling rate                  : 48.0 KHz
Frame rate                     : 31.250 fps (1536 spf)
Compression mode               : Lossy
Stream size                    : 353 MiB (4%)
Language                       : English

Audio #2
ID                             : 207 (0xCF)
Menu ID                        : 3402 (0xD4A)
Format                         : MPEG Audio
Format version                 : Version 1
Format profile                 : Layer 2
Codec ID                       : 3
Duration                       : 1h 50mn
Bit rate mode                  : Constant
Bit rate                       : 192 Kbps
Channel(s)                     : 2 channels
Sampling rate                  : 48.0 KHz
Compression mode               : Lossy
Stream size                    : 151 MiB (2%)
Language                       : English

游客,如果您要查看本帖隐藏内容请回复
回复

使用道具 举报

0

主题

201

积分

201

帖子

中级会员

Rank: 3Rank: 3

积分
201
发表于 2017-11-14 01:04:01 | 显示全部楼层
回复 支持 反对

使用道具 举报

0

主题

80

积分

39

帖子

注册会员

Rank: 2

积分
80
发表于 2017-11-14 01:39:12 | 显示全部楼层
回复 支持 反对

使用道具 举报

0

主题

125

积分

112

帖子

注册会员

Rank: 2

积分
125
发表于 2017-11-14 06:10:08 | 显示全部楼层
回复 支持 反对

使用道具 举报

0

主题

183

积分

79

帖子

注册会员

Rank: 2

积分
183
发表于 2017-11-14 08:20:42 | 显示全部楼层
回复 支持 反对

使用道具 举报

0

主题

33

积分

33

帖子

新手上路

Rank: 1

积分
33
发表于 2017-11-14 08:49:13 | 显示全部楼层
回复 支持 反对

使用道具 举报

0

主题

2662

积分

1543

帖子

金牌会员

Rank: 6Rank: 6

积分
2662
发表于 2017-11-14 09:19:38 | 显示全部楼层
回复 支持 反对

使用道具 举报

0

主题

14

积分

14

帖子

新手上路

Rank: 1

积分
14
发表于 2017-11-14 10:58:39 | 显示全部楼层
回复 支持 反对

使用道具 举报

0

主题

38

积分

36

帖子

新手上路

Rank: 1

积分
38
发表于 2017-11-14 12:39:20 | 显示全部楼层
回复

使用道具 举报

0

主题

1

积分

1

帖子

新手上路

Rank: 1

积分
1
发表于 2017-11-14 13:12:55 | 显示全部楼层
回复 支持 反对

使用道具 举报

您需要登录后才可以回帖 登录 | 立即注册

本版积分规则



QQ|Archiver|手机版|小黑屋|大帅体育资源站  

GMT+8, 2018-6-23 15:55 , Processed in 0.562980 second(s), 28 queries .

Powered by 1080 X3.2

© 2001-2018 sng.|专业无台标录制

快速回复 返回顶部 返回列表