找回密码
 立即注册
搜索
热搜: 活动 交友 discuz
查看: 3817|回复: 47

20171007 神奇动物大揭秘-全六集 CCTV9HD 1080i.ts

[复制链接]

6859

主题

6万

积分

6874

帖子

超级版主

Rank: 8Rank: 8

积分
69514
发表于 2017-10-8 22:07:50 | 显示全部楼层 |阅读模式




General
ID                             : 1 (0x1)
Complete name                  : E:\【上传】\SNG\20171007 神奇动物大揭秘-全六集 CCTV9HD 1080i.ts
Format                         : MPEG-TS
File size                      : 20.4 GiB
Duration                       : 5h 35mn
Overall bit rate mode          : Variable
Overall bit rate               : 8 731 Kbps

Video
ID                             : 103 (0x67)
Menu ID                        : 4803 (0x12C3)
Format                         : AVC
Format/Info                    : Advanced Video Codec
Format profile                 : High@L4
Format settings, CABAC         : Yes
Format settings, ReFrames      : 2 frames
Codec ID                       : 27
Duration                       : 5h 35mn
Bit rate                       : 7 653 Kbps
Width                          : 1 920 pixels
Height                         : 1 080 pixels
Display aspect ratio           : 16:9
Frame rate                     : 25.000 fps
Standard                       : Component
Color space                    : YUV
Chroma subsampling             : 4:2:0
Bit depth                      : 8 bits
Scan type                      : Interlaced
Scan type, store method        : Separated fields
Scan order                     : Top Field First
Bits/(Pixel*Frame)             : 0.148
Stream size                    : 17.9 GiB (88%)
Color range                    : Limited
Color primaries                : BT.709
Transfer characteristics       : BT.709
Matrix coefficients            : BT.709

Audio #1
ID                             : 211 (0xD3)
Menu ID                        : 4803 (0x12C3)
Format                         : AC-3
Format/Info                    : Audio Coding 3
Mode extension                 : CM (complete main)
Format settings, Endianness    : Big
Codec ID                       : 6
Duration                       : 5h 35mn
Bit rate mode                  : Constant
Bit rate                       : 448 Kbps
Channel(s)                     : 6 channels
Channel positions              : Front: L C R, Side: L R, LFE
Sampling rate                  : 48.0 KHz
Frame rate                     : 31.250 fps (1536 spf)
Compression mode               : Lossy
Stream size                    : 1.05 GiB (5%)
Language                       : English

Audio #2
ID                             : 212 (0xD4)
Menu ID                        : 4803 (0x12C3)
Format                         : MPEG Audio
Format version                 : Version 1
Format profile                 : Layer 2
Codec ID                       : 3
Duration                       : 5h 35mn
Bit rate mode                  : Constant
Bit rate                       : 192 Kbps
Channel(s)                     : 2 channels
Sampling rate                  : 48.0 KHz
Compression mode               : Lossy
Stream size                    : 460 MiB (2%)
Language                       : English

游客,如果您要查看本帖隐藏内容请回复
回复

使用道具 举报

0

主题

53

积分

53

帖子

注册会员

Rank: 2

积分
53
发表于 2017-10-9 09:25:27 | 显示全部楼层
回复 支持 反对

使用道具 举报

0

主题

27

积分

27

帖子

新手上路

Rank: 1

积分
27
发表于 2017-10-9 12:23:14 | 显示全部楼层
回复 支持 反对

使用道具 举报

0

主题

58

积分

58

帖子

注册会员

Rank: 2

积分
58
发表于 2017-10-9 13:13:59 | 显示全部楼层
大力支持大神多录制一些专题纪录片,真的太精彩啦!
回复 支持 反对

使用道具 举报

0

主题

341

积分

305

帖子

中级会员

Rank: 3Rank: 3

积分
341
发表于 2017-10-11 06:29:36 | 显示全部楼层
回复 支持 反对

使用道具 举报

0

主题

25

积分

25

帖子

新手上路

Rank: 1

积分
25
发表于 2017-10-11 17:18:40 | 显示全部楼层
Codec ID                       : 3
回复 支持 反对

使用道具 举报

0

主题

1

积分

1

帖子

新手上路

Rank: 1

积分
1
发表于 2017-10-12 18:41:14 | 显示全部楼层
回复 支持 反对

使用道具 举报

0

主题

341

积分

305

帖子

中级会员

Rank: 3Rank: 3

积分
341
发表于 2017-10-12 20:35:30 | 显示全部楼层
回复 支持 反对

使用道具 举报

0

主题

9

积分

9

帖子

新手上路

Rank: 1

积分
9
发表于 2017-10-13 13:58:47 | 显示全部楼层
今天最开心的事就是收到这个节目。
回复 支持 反对

使用道具 举报

0

主题

1

积分

1

帖子

新手上路

Rank: 1

积分
1
发表于 2017-10-13 21:10:45 | 显示全部楼层
回复 支持 反对

使用道具 举报

您需要登录后才可以回帖 登录 | 立即注册

本版积分规则


QQ|Archiver|手机版|小黑屋|大帅体育资源站  

GMT+8, 2018-12-10 21:53 , Processed in 0.592667 second(s), 26 queries .

Powered by 1080 X3.2

© 2001-2018 sng.|专业无台标录制

快速回复 返回顶部 返回列表