找回密码
 立即注册
搜索
热搜: 活动 交友 discuz
查看: 388|回复: 2

[田径] 20170806 伦敦田径世锦赛day2晚场 SNG 1080i.ts

[复制链接]

5390

主题

6万

积分

5405

帖子

超级版主

Rank: 8Rank: 8

积分
61870
发表于 2017-8-7 20:56:45 | 显示全部楼层 |阅读模式




E:\SNG\20170806 伦敦田径世锦赛day2晚场 SNG 1080i.ts
  General #8900
    ID : 8900 (0x22C4)
    Complete name : E:\SNG\20170806 伦敦田径世锦赛day2晚场 SNG 1080i.ts
    Format : MPEG-TS
    File size : 51.7 GiB
    Duration : 5h 47mn
    Start time : UTC 2017-08-05 17:34:39
    Overall bit rate mode : Variable
    Overall bit rate : 21.3 Mbps
    Network name : EBUER
  Video #512
    ID : 512 (0x200)
    Menu ID : 1 (0x1)
    Format : AVC
    Format/Info : Advanced Video Codec
    Format profile : High@L4.0
    Format settings, CABAC : No
    Format settings, ReFrames : 2 frames
    Codec ID : 27
    Duration : 5h 47mn
    Bit rate mode : Constant
    Bit rate : 19.2 Mbps
    Width : 1 920 pixels
    Height : 1 080 pixels
    Display aspect ratio : 16:9
    Frame rate : 25.000 fps
    Color space : YUV
    Chroma subsampling : 4:2:0
    Bit depth : 8 bits
    Scan type : Interlaced
    Scan order : Top Field First
    Bits/(Pixel*Frame) : 0.371
    Stream size : 45.4 GiB (88%)
    Color primaries : BT.709
    Transfer characteristics : BT.709
    Matrix coefficients : BT.709
  Audio #4112
    ID : 4112 (0x1010)
    Menu ID : 1 (0x1)
    Format : MPEG Audio
    Format version : Version 1
    Format profile : Layer 2
    Codec ID : 3
    Duration : 5h 47mn
    Bit rate mode : Constant
    Bit rate : 384 Kbps
    Channel count : 2 channels
    Sampling rate : 48.0 KHz
    Compression mode : Lossy
    Delay relative to video : -1s 8ms
    Stream size : 955 MiB (2%)
  Audio #4128
    ID : 4128 (0x1020)
    Menu ID : 1 (0x1)
    Format : MPEG Audio
    Format version : Version 1
    Format profile : Layer 2
    Codec ID : 3
    Duration : 5h 47mn
    Bit rate mode : Constant
    Bit rate : 384 Kbps
    Channel count : 2 channels
    Sampling rate : 48.0 KHz
    Compression mode : Lossy
    Delay relative to video : -1s 8ms
    Stream size : 955 MiB (2%)
  Audio #4144
    ID : 4144 (0x1030)
    Menu ID : 1 (0x1)
    Format : MPEG Audio
    Format version : Version 1
    Format profile : Layer 2
    Codec ID : 3
    Duration : 5h 47mn
    Bit rate mode : Constant
    Bit rate : 384 Kbps
    Channel count : 2 channels
    Sampling rate : 48.0 KHz
    Compression mode : Lossy
    Delay relative to video : -1s 8ms
    Stream size : 955 MiB (2%)
  Audio #4160
    ID : 4160 (0x1040)
    Menu ID : 1 (0x1)
    Format : MPEG Audio
    Format version : Version 1
    Format profile : Layer 2
    Codec ID : 3
    Duration : 5h 47mn
    Bit rate mode : Constant
    Bit rate : 384 Kbps
    Channel count : 2 channels
    Sampling rate : 48.0 KHz
    Compression mode : Lossy
    Delay relative to video : -1s 8ms
    Stream size : 955 MiB (2%)

购买主题 已有 1 人购买  本主题需向作者支付 25 金币 才能浏览
回复

使用道具 举报

0

主题

2662

积分

1543

帖子

金牌会员

Rank: 6Rank: 6

积分
2662
发表于 2018-2-23 10:43:37 | 显示全部楼层
回复 支持 反对

使用道具 举报

0

主题

6

积分

6

帖子

新手上路

Rank: 1

积分
6
发表于 2018-3-7 12:46:01 | 显示全部楼层
回复 支持 反对

使用道具 举报

您需要登录后才可以回帖 登录 | 立即注册

本版积分规则



QQ|Archiver|手机版|小黑屋|大帅体育资源站  

GMT+8, 2018-6-23 15:56 , Processed in 0.449620 second(s), 28 queries .

Powered by 1080 X3.2

© 2001-2018 sng.|专业无台标录制

快速回复 返回顶部 返回列表