找回密码
 立即注册
搜索
热搜: 活动 交友 discuz
查看: 4750|回复: 114

[电影] 20170802 大决战第一部-辽沈战役 CCTV6HD 1080i.ts

  [复制链接]

6297

主题

6万

积分

6312

帖子

超级版主

Rank: 8Rank: 8

积分
68401
发表于 2017-8-3 00:07:07 | 显示全部楼层 |阅读模式










General
ID                             : 1 (0x1)
Complete name                  : E:\SNG\20170802 大决战第一部-辽沈战役 CCTV6HD 1080i.ts
Format                         : MPEG-TS
File size                      : 11.1 GiB
Duration                       : 3h 28mn
Overall bit rate mode          : Variable
Overall bit rate               : 7 648 Kbps

Video
ID                             : 178 (0xB2)
Menu ID                        : 3304 (0xCE8)
Format                         : AVC
Format/Info                    : Advanced Video Codec
Format profile                 : High@L4
Format settings, CABAC         : Yes
Format settings, ReFrames      : 4 frames
Format settings, GOP           : M=4, N=12
Codec ID                       : 27
Duration                       : 3h 28mn
Bit rate                       : 7 141 Kbps
Width                          : 1 920 pixels
Height                         : 1 080 pixels
Display aspect ratio           : 16:9
Frame rate                     : 25.000 fps
Standard                       : Component
Color space                    : YUV
Chroma subsampling             : 4:2:0
Bit depth                      : 8 bits
Scan type                      : MBAFF
Scan type, store method        : Interleaved fields
Scan order                     : Top Field First
Bits/(Pixel*Frame)             : 0.138
Stream size                    : 10.4 GiB (93%)
Color range                    : Limited
Color primaries                : BT.709
Transfer characteristics       : BT.709
Matrix coefficients            : BT.709

Audio
ID                             : 179 (0xB3)
Menu ID                        : 3304 (0xCE8)
Format                         : MPEG Audio
Format version                 : Version 1
Format profile                 : Layer 2
Codec ID                       : 3
Duration                       : 3h 28mn
Bit rate mode                  : Constant
Bit rate                       : 128 Kbps
Channel(s)                     : 2 channels
Sampling rate                  : 48.0 KHz
Compression mode               : Lossy
Stream size                    : 191 MiB (2%)
Language                       : English

游客,如果您要查看本帖隐藏内容请回复
回复

使用道具 举报

0

主题

3

积分

3

帖子

新手上路

Rank: 1

积分
3
发表于 2017-8-3 16:36:06 | 显示全部楼层
回复 支持 1 反对 0

使用道具 举报

0

主题

53

积分

42

帖子

注册会员

Rank: 2

积分
53
发表于 2017-8-3 06:02:04 | 显示全部楼层
回复

使用道具 举报

0

主题

56

积分

56

帖子

注册会员

Rank: 2

积分
56
发表于 2017-8-3 08:12:48 | 显示全部楼层
感谢楼主分享这样的片子 难得的佳品
回复 支持 反对

使用道具 举报

0

主题

207

积分

164

帖子

中级会员

Rank: 3Rank: 3

积分
207
发表于 2017-8-3 08:17:12 | 显示全部楼层
回复 支持 反对

使用道具 举报

0

主题

53

积分

53

帖子

注册会员

Rank: 2

积分
53
发表于 2017-8-3 08:59:49 | 显示全部楼层
回复 支持 反对

使用道具 举报

0

主题

4

积分

4

帖子

新手上路

Rank: 1

积分
4
发表于 2017-8-3 10:58:23 | 显示全部楼层
回复 支持 反对

使用道具 举报

0

主题

33

积分

26

帖子

新手上路

Rank: 1

积分
33
发表于 2017-8-3 11:12:51 | 显示全部楼层
回复 支持 反对

使用道具 举报

0

主题

3

积分

3

帖子

新手上路

Rank: 1

积分
3
发表于 2017-8-3 14:15:41 | 显示全部楼层
好片,经典电影,三大战役之一,谢谢分享。
回复 支持 反对

使用道具 举报

0

主题

22

积分

21

帖子

新手上路

Rank: 1

积分
22
发表于 2017-8-3 16:20:28 | 显示全部楼层
谢谢分享经典战争大片,终于有高清版了
回复 支持 反对

使用道具 举报

您需要登录后才可以回帖 登录 | 立即注册

本版积分规则



QQ|Archiver|手机版|小黑屋|大帅体育资源站  

GMT+8, 2018-9-19 11:56 , Processed in 0.317979 second(s), 28 queries .

Powered by 1080 X3.2

© 2001-2018 sng.|专业无台标录制

快速回复 返回顶部 返回列表