找回密码
 立即注册
搜索
热搜: 活动 交友 discuz
查看: 1179|回复: 19

[冬季项目] 【中国冠军】20170330 花滑世锦赛双人自由滑 SNG 1080i.ts

[复制链接]

6297

主题

6万

积分

6312

帖子

超级版主

Rank: 8Rank: 8

积分
68401
发表于 2017-4-1 10:46:08 | 显示全部楼层 |阅读模式
本帖最后由 SportHD 于 2017-4-1 13:17 编辑
















E:\SNG\20170330 花滑世锦赛双人自由滑 SNG 1080i.[0].ts
  General #8900
    ID : 8900 (0x22C4)
    Complete name : E:\SNG\20170330 花滑世锦赛双人自由滑 SNG 1080i.[0].ts
    Format : MPEG-TS
    File size : 23.2 GiB
    Duration : 3h 33mn
    Overall bit rate mode : Variable
    Overall bit rate : 15.6 Mbps
    Network name : Ericsson
  Video #2060
    ID : 2060 (0x80C)
    Menu ID : 1 (0x1)
    Format : AVC
    Format/Info : Advanced Video Codec
    Format profile : High@L4.1
    Format settings, CABAC : Yes
    Format settings, ReFrames : 4 frames
    Format settings, GOP : M=4, N=40
    Codec ID : 27
    Duration : 7s 240ms
    Bit rate : 14.1 Mbps
    Width : 1 920 pixels
    Height : 1 080 pixels
    Display aspect ratio : 16:9
    Frame rate : 25.000 fps
    Color space : YUV
    Chroma subsampling : 4:2:0
    Bit depth : 8 bits
    Scan type : Interlaced
    Scan order : Top Field First
    Bits/(Pixel*Frame) : 0.273
    Stream size : 12.2 MiB (0%)
    Color primaries : BT.709
    Transfer characteristics : BT.709
    Matrix coefficients : BT.709
  Audio #3060
    ID : 3060 (0xBF4)
    Menu ID : 1 (0x1)
    Format : MPEG Audio
    Format version : Version 1
    Format profile : Layer 2
    Codec ID : 4
    Duration : 3h 33mn
    Bit rate mode : Constant
    Bit rate : 320 Kbps
    Channel count : 2 channels
    Sampling rate : 48.0 KHz
    Compression mode : Lossy
    Delay relative to video : -82ms
    Stream size : 489 MiB (2%)
    Language : English
  Audio #4060
    ID : 4060 (0xFDC)
    Menu ID : 1 (0x1)
    Format : MPEG Audio
    Format version : Version 1
    Format profile : Layer 2
    Codec ID : 4
    Duration : 3h 33mn
    Bit rate mode : Constant
    Bit rate : 320 Kbps
    Channel count : 2 channels
    Sampling rate : 48.0 KHz
    Compression mode : Lossy
    Delay relative to video : -72ms
    Stream size : 489 MiB (2%)
    Language : English
  Menu #1060
    ID : 1060 (0x424)
    Menu ID : 1 (0x1)
    Duration : 3h 33mn
    List : 2060 (0x80C) (AVC) / 3060 (0xBF4) (MPEG Audio, English) / 4060 (0xFDC) (MPEG Audio, English)
    Language :  / English / English
    Maximum bit rate : 200000000
游客,如果您要查看本帖隐藏内容请回复
回复

使用道具 举报

0

主题

14

积分

6

帖子

新手上路

Rank: 1

积分
14
发表于 2017-4-1 17:57:59 | 显示全部楼层
回复

使用道具 举报

0

主题

17

积分

17

帖子

新手上路

Rank: 1

积分
17
发表于 2017-4-2 16:10:21 | 显示全部楼层
回复 支持 反对

使用道具 举报

0

主题

30

积分

30

帖子

新手上路

Rank: 1

积分
30
发表于 2017-4-2 22:15:00 | 显示全部楼层
回复 支持 反对

使用道具 举报

0

主题

224

积分

224

帖子

中级会员

Rank: 3Rank: 3

积分
224
发表于 2017-4-2 23:00:26 | 显示全部楼层
回复 支持 反对

使用道具 举报

0

主题

10

积分

9

帖子

新手上路

Rank: 1

积分
10
发表于 2017-4-3 10:42:44 | 显示全部楼层
回复 支持 反对

使用道具 举报

0

主题

26

积分

26

帖子

新手上路

Rank: 1

积分
26
发表于 2017-4-3 15:35:15 | 显示全部楼层
回复 支持 反对

使用道具 举报

0

主题

12

积分

2

帖子

新手上路

Rank: 1

积分
12
发表于 2017-4-3 15:53:52 | 显示全部楼层
回复 支持 反对

使用道具 举报

0

主题

8

积分

2

帖子

新手上路

Rank: 1

积分
8
发表于 2017-4-3 23:36:19 | 显示全部楼层
回复 支持 反对

使用道具 举报

0

主题

2853

积分

1734

帖子

金牌会员

Rank: 6Rank: 6

积分
2853
发表于 2017-4-5 10:14:34 | 显示全部楼层
回复 支持 反对

使用道具 举报

您需要登录后才可以回帖 登录 | 立即注册

本版积分规则



QQ|Archiver|手机版|小黑屋|大帅体育资源站  

GMT+8, 2018-9-19 12:00 , Processed in 0.444422 second(s), 38 queries .

Powered by 1080 X3.2

© 2001-2018 sng.|专业无台标录制

快速回复 返回顶部 返回列表