找回密码
 立即注册
搜索
热搜: 活动 交友 discuz
查看: 819|回复: 14

[自行车] 20160909 环中国自行车赛第一赛段 SNG 1080i

[复制链接]

6297

主题

6万

积分

6312

帖子

超级版主

Rank: 8Rank: 8

积分
68401
发表于 2016-9-10 21:38:14 | 显示全部楼层 |阅读模式




E:\20160909 环中国自行车赛第一赛段 SNG 1080i.ts
  General #8900
    ID : 8900 (0x22C4)
    Complete name : E:\20160909 环中国自行车赛第一赛段 SNG 1080i
    Format : MPEG-TS
    File size : 17.6 GiB
    Duration : 2h 44mn
    Overall bit rate mode : Variable
    Overall bit rate : 15.3 Mbps
  Video #33
    ID : 33 (0x21)
    Menu ID : 1 (0x1)
    Format : AVC
    Format/Info : Advanced Video Codec
    Format profile : Main@L4.0
    Format settings, CABAC : Yes
    Format settings, ReFrames : 4 frames
    Codec ID : 27
    Duration : 2h 44mn
    Bit rate : 13.5 Mbps
    Width : 1 920 pixels
    Height : 1 080 pixels
    Display aspect ratio : 16:9
    Frame rate : 25.000 fps
    Color space : YUV
    Chroma subsampling : 4:2:0
    Bit depth : 8 bits
    Scan type : Interlaced
    Scan order : Top Field First
    Bits/(Pixel*Frame) : 0.261
    Stream size : 15.5 GiB (88%)
    Color primaries : BT.709
    Transfer characteristics : BT.709
    Matrix coefficients : BT.709
  Audio #34
    ID : 34 (0x22)
    Menu ID : 1 (0x1)
    Format : MPEG Audio
    Format version : Version 1
    Format profile : Layer 2
    Codec ID : 3
    Duration : 2h 44mn
    Bit rate mode : Constant
    Bit rate : 256 Kbps
    Channel count : 2 channels
    Sampling rate : 48.0 KHz
    Compression mode : Lossy
    Delay relative to video : -571ms
    Stream size : 301 MiB (2%)
    Language : English
  Audio #35
    ID : 35 (0x23)
    Menu ID : 1 (0x1)
    Format : MPEG Audio
    Format version : Version 1
    Format profile : Layer 2
    Codec ID : 3
    Duration : 2h 44mn
    Bit rate mode : Constant
    Bit rate : 256 Kbps
    Channel count : 2 channels
    Sampling rate : 48.0 KHz
    Compression mode : Lossy
    Delay relative to video : -531ms
    Stream size : 301 MiB (2%)
    Language : English
  Audio #36
    ID : 36 (0x24)
    Menu ID : 1 (0x1)
    Format : MPEG Audio
    Format version : Version 1
    Format profile : Layer 2
    Codec ID : 3
    Duration : 2h 44mn
    Bit rate mode : Constant
    Bit rate : 256 Kbps
    Channel count : 2 channels
    Sampling rate : 48.0 KHz
    Compression mode : Lossy
    Delay relative to video : -531ms
    Stream size : 301 MiB (2%)
    Language : English
  Audio #37
    ID : 37 (0x25)
    Menu ID : 1 (0x1)
    Format : MPEG Audio
    Format version : Version 1
    Format profile : Layer 2
    Codec ID : 3
    Duration : 2h 44mn
    Bit rate mode : Constant
    Bit rate : 256 Kbps
    Channel count : 2 channels
    Sampling rate : 48.0 KHz
    Compression mode : Lossy
    Delay relative to video : -491ms
    Stream size : 301 MiB (2%)
    Language : English
  Menu #32
    ID : 32 (0x20)
    Menu ID : 1 (0x1)
    Duration : 2h 44mn
    List : 33 (0x21) (AVC) / 34 (0x22) (MPEG Audio, English) / 35 (0x23) (MPEG Audio, English) / 36 (0x24) (MPEG Audio, English) / 37 (0x25) (MPEG Audio, English)
    Language :  / English / English / English / English
    Maximum bit rate : 200000000
游客,如果您要查看本帖隐藏内容请回复
回复

使用道具 举报

339

主题

416

积分

399

帖子

中级会员

Rank: 3Rank: 3

积分
416
发表于 2016-9-11 12:59:22 | 显示全部楼层
中国的自行车赛越来越多了,可喜可贺
回复 支持 反对

使用道具 举报

0

主题

242

积分

242

帖子

中级会员

Rank: 3Rank: 3

积分
242
发表于 2016-9-11 13:30:30 | 显示全部楼层
回复 支持 反对

使用道具 举报

0

主题

207

积分

164

帖子

中级会员

Rank: 3Rank: 3

积分
207
发表于 2016-9-12 18:08:02 | 显示全部楼层
回复 支持 反对

使用道具 举报

0

主题

13

积分

3

帖子

新手上路

Rank: 1

积分
13
发表于 2016-9-13 17:27:30 | 显示全部楼层
回复 支持 反对

使用道具 举报

0

主题

30

积分

30

帖子

新手上路

Rank: 1

积分
30
发表于 2016-9-22 00:05:48 | 显示全部楼层
回复 支持 反对

使用道具 举报

0

主题

14

积分

14

帖子

新手上路

Rank: 1

积分
14
发表于 2016-11-17 10:20:01 | 显示全部楼层
回复 支持 反对

使用道具 举报

0

主题

13

积分

3

帖子

新手上路

Rank: 1

积分
13
发表于 2017-2-23 08:53:46 | 显示全部楼层
回复 支持 反对

使用道具 举报

0

主题

69

积分

69

帖子

注册会员

Rank: 2

积分
69
发表于 2017-4-27 17:31:53 | 显示全部楼层
回复 支持 反对

使用道具 举报

0

主题

256

积分

243

帖子

中级会员

Rank: 3Rank: 3

积分
256
发表于 2017-5-30 00:52:32 | 显示全部楼层
廣東龍門寶記!謝謝樓主的無私發佈分享!
回复 支持 反对

使用道具 举报

您需要登录后才可以回帖 登录 | 立即注册

本版积分规则



QQ|Archiver|手机版|小黑屋|大帅体育资源站  

GMT+8, 2018-9-19 10:46 , Processed in 0.426445 second(s), 25 queries .

Powered by 1080 X3.2

© 2001-2018 sng.|专业无台标录制

快速回复 返回顶部 返回列表